iRegarder Steel Country En Haute Qualité 1080p, 720p.
Se connecter maintenant! Ça ne prend que 30 secondes pour regarder Le film.
Se connecter

  • Lecteur HD
    Ajouter: 27 08 2019
  • Younetu
    Ajouter: 27 08 2019
  • Dood
    Ajouter: 27 08 2019
  • Fembed
    Ajouter: 27 08 2019
  • Uqload
    Ajouter: 27 08 2019
  • Uptostream
    Ajouter: 27 08 2019
  • Vidoza
    Ajouter: 27 08 2019
  • Rakuten
    Ajouter: 27 08 2019
  • Google
    Ajouter: 27 08 2019
  • Primevideo
    Ajouter: 27 08 2019
Steel Country

Voir le film Steel Country en streaming VF ou VOSTFR complet

Quand un jeune garçon est retrouvé mort dans une ville isolée de l'ouest de la Pennsylvanie, un éboueur, Donald, prend sur lui de jouer au détective. Il se lance dans une enquête obsessionnelle, déterminé à prouver que le garçon a été assassiné sans se douter des lourdes conséquences de ses recherches...NFO Show/hide text General Unique ID : 1796052838134700168710236336341972090 (0x159E83DE229DD7A67D064A0A35CF47A) Complete name : Steel.Country.2018.FRENCH.720p.BluRay.Light.x264.AC3-ACOOL.WwW.Zone-Telechargement.Net.mkv Format : Matroska Format version : Version 4 / Version 2 File size : 1.29 GiB Duration : 1 h 29 min Overall bit rate : 2 050 kb/s Movie name : Steel Country Encoded date : UTC 2019-08-27 14:14:48 Writing application : mkvmerge v25.0.0 ('Prog Noir') 64-bit Writing library : libebml v1.3.6 + libmatroska v1.4.9 Video ID : 1 Format : AVC Format/Info : Advanced Video Codec Format profile : [email protected] Format settings : CABAC / 4 Ref Frames Format settings, CABAC : Yes Format settings, ReFrames : 4 frames Codec ID : V_MPEG4/ISO/AVC Duration : 1 h 29 min Bit rate : 1 600 kb/s Width : 1 280 pixels Height : 536 pixels Display aspect ratio : 2.40:1 Frame rate mode : Constant Frame rate : 23.976 (24000/1001) FPS Color space : YUV Chroma subsampling : 4:2:0 Bit depth : 8 bits Scan type : Progressive Bits/(Pixel*Frame) : 0.097 Stream size : 1.00 GiB (78%) Writing library : x264 core 155 r2901 7d0ff22 Encoding settings : cabac=1 / ref=1 / deblock=1:0:0 / analyse=0x3:0x113 / me=hex / subme=2 / psy=1 / psy_rd=1.00:0.00 / mixed_ref=0 / me_range=16 / chroma_me=1 / trellis=0 / 8x8dct=1 / cqm=0 / deadzone=21,11 / fast_pskip=1 / chroma_qp_offset=0 / threads=17 / lookahead_threads=4 / sliced_threads=0 / nr=0 / decimate=1 / interlaced=0 / bluray_compat=0 / constrained_intra=0 / bframes=3 / b_pyramid=2 / b_adapt=1 / b_bias=0 / direct=1 / weightb=1 / open_gop=0 / weightp=1 / keyint=240 / keyint_min=24 / scenecut=40 / intra_refresh=0 / rc_lookahead=10 / rc=2pass / mbtree=1 / bitrate=1600 / ratetol=1.0 / qcomp=0.60 / qpmin=0 / qpmax=69 / qpstep=4 / cplxblur=20.0 / qblur=0.5 / vbv_maxrate=62500 / vbv_bufsize=78125 / nal_hrd=none / filler=0 / ip_ratio=1.40 / aq=1:1.00 Default : Yes Forced : No Color range : Limited Color primaries : BT.709 Transfer characteristics : BT.709 Matrix coefficients : BT.709 Audio ID : 2 Format : AC-3 Format/Info : Audio Coding 3 Codec ID : A_AC3 Duration : 1 h 29 min Bit rate mode : Constant Bit rate : 448 kb/s Channel(s) : 6 channels Channel positions : Front: L C R, Side: L R, LFE Sampling rate : 48.0 kHz Frame rate : 31.250 FPS (1536 SPF) Bit depth : 16 bits Compression mode : Lossy Delay relative to video : 16 ms Stream size : 288 MiB (22%) Title : French AC3 5.1 448kb/s Language : French Service kind : Complete Main Default : Yes Forced : No Text ID : 3 Format : UTF-8 Codec ID : S_TEXT/UTF8 Codec ID/Info : UTF-8 Plain Text Duration : 1 h 25 min Bit rate : 35 b/s Count of elements : 743 Stream size : 22.3 KiB (0%) Title : FULL FR Language : French Default : No Forced : No Menu 00:00:00.000 : en:Chapter 01 00:07:00.420 : en:Chapter 02 00:14:21.277 : en:Chapter 03 00:22:17.169 : en:Chapter 04 00:28:29.374 : en:Chapter 05 00:34:19.099 : en:Chapter 06 00:41:56.139 : en:Chapter 07 00:49:21.125 : en:Chapter 08 00:54:26.513 : en:Chapter 09 01:01:42.616 : en:Chapter 10 01:08:55.131 : en:Chapter 11 01:19:16.543 : en:Chapter 12....

  • Genre :
  • Acteurs :
  • Créateur :
  • Année :
  • Durée :

Voir le film Steel Country en streaming VF ou VOSTFR complet

important
Vous souhaitez découvrir en intégralité le film Steel Country intégralement ? Rendez-vous sur VoirFilms pour y accéder en illimité, gratuitement et sans condition. Tout ce que vous avez à faire, c’est sélectionné votre lecteur pour le visionner en entier en streaming VF ou VOSTFR.
Rappel !
Installez AdBlock pour bloquer les publicités agaçantes des lecteurs (c'est hors de notre contrôle).
Keywords:
voir Steel Country Streaming complet Steel Country Streaming gratuit Steel Country Streaming VF Steel Country Streaming Français Steel Country film gratuit complet regarder Steel Country en Streaming voir Steel Country en streaming illimité