iRegarder Double mortel En Haute Qualité 1080p, 720p.
Se connecter maintenant! Ça ne prend que 30 secondes pour regarder Le film.
Se connecter

  • Lecteur HD
    Ajouter: 10 09 2019
  • Younetu
    Ajouter: 10 09 2019
  • Dood
    Ajouter: 10 09 2019
  • Fembed
    Ajouter: 10 09 2019
  • Uqload
    Ajouter: 10 09 2019
  • Uptostream
    Ajouter: 10 09 2019
  • Vidoza
    Ajouter: 10 09 2019
  • Rakuten
    Ajouter: 10 09 2019
  • Google
    Ajouter: 10 09 2019
  • Primevideo
    Ajouter: 10 09 2019
Double mortel

Voir le film Double mortel en streaming VF ou VOSTFR complet

Maria, fille timide et recluse, se confie à son reflet dans le miroir, qui l'écoute, la comprend, mais va la mener à sa perte.NFO Show/hide text General Unique ID : 93295591184866790589247323065597096692 (0x463013C83E5AF5FA0E789FBAD280F2F4) Complete name : Look.Away.2018.FRENCH.720p.BluRay.Light.x264.AC3-ACOOL.WwW.Zone-Telechargement.Net.mkv Format : Matroska Format version : Version 4 / Version 2 File size : 1.44 GiB Duration : 1 h 43 min Overall bit rate : 1 984 kb/s Movie name : Double mortel Encoded date : UTC 2019-09-09 21:36:02 Writing application : mkvmerge v25.0.0 ('Prog Noir') 64-bit Writing library : libebml v1.3.6 + libmatroska v1.4.9 Video ID : 1 Format : AVC Format/Info : Advanced Video Codec Format profile : [email protected] Format settings : CABAC / 4 Ref Frames Format settings, CABAC : Yes Format settings, ReFrames : 4 frames Codec ID : V_MPEG4/ISO/AVC Duration : 1 h 43 min Bit rate : 1 600 kb/s Width : 1 280 pixels Height : 536 pixels Display aspect ratio : 2.093 Frame rate mode : Constant Frame rate : 23.976 (24000/1001) FPS Color space : YUV Chroma subsampling : 4:2:0 Bit depth : 8 bits Scan type : Progressive Bits/(Pixel*Frame) : 0.097 Stream size : 1.16 GiB (81%) Writing library : x264 core 155 r2901 7d0ff22 Encoding settings : cabac=1 / ref=1 / deblock=1:0:0 / analyse=0x3:0x113 / me=hex / subme=2 / psy=1 / psy_rd=1.00:0.00 / mixed_ref=0 / me_range=16 / chroma_me=1 / trellis=0 / 8x8dct=1 / cqm=0 / deadzone=21,11 / fast_pskip=1 / chroma_qp_offset=0 / threads=17 / lookahead_threads=4 / sliced_threads=0 / nr=0 / decimate=1 / interlaced=0 / bluray_compat=0 / constrained_intra=0 / bframes=3 / b_pyramid=2 / b_adapt=1 / b_bias=0 / direct=1 / weightb=1 / open_gop=0 / weightp=1 / keyint=240 / keyint_min=24 / scenecut=40 / intra_refresh=0 / rc_lookahead=10 / rc=2pass / mbtree=1 / bitrate=1600 / ratetol=1.0 / qcomp=0.60 / qpmin=0 / qpmax=69 / qpstep=4 / cplxblur=20.0 / qblur=0.5 / vbv_maxrate=62500 / vbv_bufsize=78125 / nal_hrd=none / filler=0 / ip_ratio=1.40 / aq=1:1.00 Default : Yes Forced : No Color range : Limited Color primaries : BT.709 Transfer characteristics : BT.709 Matrix coefficients : BT.709 Audio ID : 2 Format : AC-3 Format/Info : Audio Coding 3 Codec ID : A_AC3 Duration : 1 h 43 min Bit rate mode : Constant Bit rate : 384 kb/s Channel(s) : 6 channels Channel positions : Front: L C R, Side: L R, LFE Sampling rate : 48.0 kHz Frame rate : 31.250 FPS (1536 SPF) Bit depth : 16 bits Compression mode : Lossy Delay relative to video : 12 ms Stream size : 285 MiB (19%) Title : French AC3 5.1 384kb/s Language : French Service kind : Complete Main Default : Yes Forced : No Text ID : 3 Format : UTF-8 Codec ID : S_TEXT/UTF8 Codec ID/Info : UTF-8 Plain Text Duration : 1 h 41 min Bit rate : 26 b/s Count of elements : 806 Stream size : 20.0 KiB (0%) Title : FULL FR Language : French Default : No Forced : No Menu 00:00:00.000 : en:00:00:00.000 00:10:36.219 : en:00:10:36.219 00:19:55.820 : en:00:19:55.820 00:26:28.796 : en:00:26:28.796 00:35:57.947 : en:00:35:57.947 00:43:52.630 : en:00:43:52.630 00:53:10.896 : en:00:53:10.896 01:01:52.459 : en:01:01:52.459 01:09:05.641 : en:01:09:05.641 01:17:10.042 : en:01:17:10.042 01:24:25.811 : en:01:24:25.811 01:37:18.708 : en:01:37:18.708....

  • Genre :
  • Acteurs :
  • Créateur :
  • Année :
  • Durée :

Voir le film Double mortel en streaming VF ou VOSTFR complet

important
Vous souhaitez découvrir en intégralité le film Double mortel intégralement ? Rendez-vous sur VoirFilms pour y accéder en illimité, gratuitement et sans condition. Tout ce que vous avez à faire, c’est sélectionné votre lecteur pour le visionner en entier en streaming VF ou VOSTFR.
Rappel !
Installez AdBlock pour bloquer les publicités agaçantes des lecteurs (c'est hors de notre contrôle).
Keywords:
voir Double mortel Streaming complet Double mortel Streaming gratuit Double mortel Streaming VF Double mortel Streaming Français Double mortel film gratuit complet regarder Double mortel en Streaming voir Double mortel en streaming illimité